<?xml version="1.0" standalone="no"?>
<!DOCTYPE svg PUBLIC "-//W3C//DTD SVG 1.1//EN" "http://www.w3.org/Graphics/SVG/1.1/DTD/svg11.dtd" >
<svg xmlns="http://www.w3.org/2000/svg">
<metadata>Generated by IcoMoon</metadata>
<defs>
<font id="hbicons" horiz-adv-x="1024">
<font-face units-per-em="1024" ascent="960" descent="-64" />
<missing-glyph horiz-adv-x="1024" />
<glyph unicode="&#x20;" horiz-adv-x="512" d="" />
<glyph unicode="&#xe000;" glyph-name="uniE000" d="M261.5 913l43 43 506.5-507-1-1 1-1-506.5-507-43 43 464.5 465z" />
<glyph unicode="&#xe001;" glyph-name="uniE001" d="M768.5-17l-43-43-506.5 507 1 1-1 1 506.5 507 43-43-464.5-465z" />
<glyph unicode="&#xe002;" glyph-name="uniE002" d="M1007.5 94l-246.5 246.5q57 96 57 207.5 0 110-54.5 203.5t-148 148-203.5 54.5-203.5-54.5-148-148-54.5-203.5 54.5-203.5 148-148 203.5-54.5q112 0 207 56.5l246.5-246.5q8.5-8.5 20.75-8.25t20.75 8.75l100 100q8.5 8.5 8.75 20.75t-8.25 20.75zM105.5 548q0 62 24.25 119t65.25 98 98 65.25 119 24.25q83 0 153.75-41t112-111.75 41.25-153.75-41.25-153.75-112-112-153.75-41.25-153.75 41.25-111.75 112-41 153.75z" />
<glyph unicode="&#xe003;" glyph-name="uniE003" d="M937 155.5l-300.5 301 280 280q5.5 5.5 6 12.5t-4.5 12l-98.5 98.5q-5 5-11.75 4.5t-12.25-6l-280.5-280.5-281.5 281.5q-5.5 5.5-12.5 6t-12-4.5l-98-98.5q-5-5-4.5-11.75t6-12.25l281.5-281.5-302-302q-5.5-5.5-6-12.5t4.5-12l98-98.5q5-5 12-4.5t12.5 6l302 302 301-300.5q5.5-5.5 12.25-6t11.75 4.5l98.5 98q5 5 4.5 12t-6 12.5z" />
<glyph unicode="&#xe004;" glyph-name="uniE004" d="M1013.5 952.5l11-10.5-1006.5-1006.5-10.5 11z" />
<glyph unicode="&#xe005;" glyph-name="uniE005" d="M408 552h-396.5v396.5h396.5v-396.5zM36 576.5h347v347.5h-347v-347.5zM1017 552h-396.5v396.5h396.5v-396.5zM645 576.5h347.5v347.5h-347.5v-347.5zM408.5-57h-396.5v396.5h396.5v-396.5zM36.5-32.5h347v347.5h-347v-347.5zM1017.5-57h-396.5v396.5h396.5v-396.5zM645.5-32.5h347.5v347.5h-347.5v-347.5z" />
<glyph unicode="&#xe006;" glyph-name="uniE006" d="M266.5 919.5l16.5 16.5 488-488-488-488-16.5 16.5 471.5 471.5z" />
<glyph unicode="&#xe007;" glyph-name="uniE007" d="M735 919.5l-16.5 16.5-487.5-488 487.5-488 16.5 16.5-471 471.5z" />
<glyph unicode="&#xe008;" glyph-name="uniE008" d="M977 682l43-43-507-507-1 1.5-1-1.5-507 507 43 43 465-465z" />
<glyph unicode="&#xe009;" glyph-name="uniE009" d="M559 896h-268q-59 0-113-26.75t-87-72.5-33-97.25q0-82 57-138.25t147-56.25q17 0 25 0.5-13.5-25.5-13.5-50 0-38.5 36.5-74-7.5 0-23-0.25t-23.5-0.25q-72.5 0-133.75-27.75t-95.5-72-34.25-93.25q0-47 37.75-83.25t99.75-55 137-18.75q61.5 0 112.25 16.5t83.25 43.75 50 61.5 17.5 71.25q0 59-20.5 98t-73 76q-23.5 16.5-47 41.75t-23.5 41.75q0 21.5 9.75 36.5t41.75 40q35 27 55.25 63t20.25 77q0 53-22.75 96t-63.75 58.5h85zM465.5 240.5q3.5-15.5 3.5-27.5 0-63.5-46.5-101.5t-148.5-38q-76 0-126.75 42t-50.75 101.5q0 57 58.75 98.5t136.25 40.5q36.5-1 67-10.5 6.5-4.5 22.5-15.5t21.5-15 17.5-13 16.75-14.25 11.75-13.5 10.75-16.5 6.25-17.25zM301 532q-51.5 1.5-94.5 50.75t-52 117.25q-9 67.5 21 113.5t82 44.5 94.75-49.75 51.75-115.75q9-68-21.25-115t-81.75-45.5zM832 704v192h-64v-192h-192v-64h192v-192h64v192h192v64h-192z" />
<glyph unicode="&#xe00a;" glyph-name="uniE00A" d="M576-64h-192v512h-128v176.5h128v104q0 45.5 5.25 79.5t19.25 63.75 37.25 48.5 60 29.25 86.75 10.5h141v-176.5h-88q-24 0-38.5-4t-21-14.5-8.25-21.25-1.75-30.75v-88.5h158.5l-18.5-176.5h-140v-512z" />
<glyph unicode="&#xe00b;" glyph-name="uniE00B" d="M1024 765.5q-58.5-25.5-120.5-33 68 41 92 116-61.5-36.5-133-50.5-62 66-153.5 66-87 0-148.5-61.5t-61.5-148.5q0-23.5 5.5-48-129 6.5-241.5 64.5t-191.5 155q-28.5-49-28.5-105.5 0-54 25.25-100.25t68.25-74.75q-49.5 1.5-95.5 26.5v-2.5q0-76 48-133.5t120.5-72.5q-26.5-7.5-55-7.5-21.5 0-39.5 3.5 20-63.5 73.75-104t122.25-41.5q-114.5-90-261-90-25 0-50 3 147.5-94.5 322-94.5 112 0 210 35.5t168 95 120.5 136.75 75 161.75 24.5 168.5q0 9.5-1 27.5 63 45 105 108.5z" />
<glyph unicode="&#xe00c;" glyph-name="uniE00C" d="M985 654l16.5-16.5-488-488-487.5 488 16.5 16.5 471-471.5z" />
<glyph unicode="&#xe00d;" glyph-name="uniE00D" d="M512 960q-104.5 0-199.25-40.5t-163.25-109-109-163.25-40.5-199.25 40.5-199.25 109-163.25 163.25-109 199.25-40.5 199.25 40.5 163.25 109 109 163.25 40.5 199.25-40.5 199.25-109 163.25-163.25 109-199.25 40.5zM561.5 276q-16.5 1-31.25 6.25t-23.25 10.5-23.75 15.75-24.25 16q-9-46.5-17-78.5t-21.5-69-33-64.5-45.5-46.5q-6.5 35-5.25 76.5t4.75 71 11.75 67 15.75 64.5 16.75 63 14.75 63q-13 21.5-15.75 51t4.5 56.5 22 49.5 37 30.25 49.75-1.75q23-9 30.5-29.25t3-45.5-13.5-54-17.25-57-10.25-52.25 10.25-41.25 41.25-23.25q30.5-6 58 5t46.5 35.25 33 56 19 68.25 3.75 71-12.5 65.5-30.25 50.5q-32 32.5-74.5 45.75t-84 8-81.25-26-68-52.5-42.25-75.5-6.5-90.25q2.5-14.5 11.25-30.5t15.5-26.5 6.25-29-13.5-41q-113.5 25.5-107.5 176 2 53 25 100.5t59 81 81.5 55 93.5 27q81 9 152.25-12.25t120.25-73 59-124.75q7-42.5 2-85.25t-16.75-82-34.25-72.5-50.25-57-65.5-36-79.25-8.75z" />
<glyph unicode="&#xe00e;" glyph-name="uniE00E" d="M1024 602q0-64-25.5-120.25t-71-97.75h0.5l-320-320q-16-16-24.75-24.25t-22.5-19.25-25.5-15.75-23.25-4.75-23.25 4.75-25.5 15.75-22.5 19.25-24.75 24.25l-320 320h0.5q-45.5 41.5-71 97.75t-25.5 120.25q0 60 23.25 114.5t62.5 93.75 93.75 62.5 114.5 23.25q64 0 120.25-25.5t97.75-71q41.5 45.5 97.75 71t120.25 25.5q60 0 114.5-23.25t93.75-62.5 62.5-93.75 23.25-114.5z" />
<glyph unicode="&#xe00f;" glyph-name="uniE00F" d="M1024 602q0 60-23.25 114.5t-62.5 93.75-93.75 62.5-114.5 23.25q-64 0-120.25-25.5t-97.75-71q-41.5 45.5-97.75 71t-120.25 25.5q-60 0-114.5-23.25t-93.75-62.5-62.5-93.75-23.25-114.5q0-64 25.5-120.25t71-97.75h-0.5l320-320q16-16 24.75-24.25t22.5-19.25 25.5-15.75 23.25-4.75 23.25 4.75 25.5 15.75 22.5 19.25 24.75 24.25l320 320h-0.5q45.5 41.5 71 97.75t25.5 120.25zM841.5 479l-329.5-330-5.5 5.5-324 324.5q-54.5 50-54.5 123 0 68.5 48.75 117.25t117.25 48.75q73 0 123-54.5l95-104.5 95 104.5q50 54.5 123 54.5 68.5 0 117.25-48.75t48.75-117.25q0-73-54.5-123z" />
<glyph unicode="&#xe010;" glyph-name="uniE010" d="M580 516v444h-136v-444h-444v-136h444v-444h136v444h444v136h-444z" />
<glyph unicode="&#xe011;" glyph-name="uniE011" d="M640 839l-49-84 112.5-65 48.5 84zM559 698.5l-243-420.5 112-65 243 421zM691 884.5l74.5-43.5q31-18 40.5-52.5t-8.5-65.5l-70.5-121.5-275.5-477-169-112q-30.5-20-50.25-8.5t-17.25 47.5l12.5 202.5 345.5 599q18 31 52.5 40.25t65.5-8.75zM274.5 77l121 80-112 64.5z" />
<glyph unicode="&#xe012;" glyph-name="uniE012" d="M882.5 655h-113.5v45.5q0 70.5-34.75 130t-94.25 94-130 34.5q-52.5 0-100.5-20.5t-82.5-55-55-82.5-20.5-100.5v-45.5h-113.5q-35 0-60-30.75t-25-73.75v-508.5q0-43 25-73.75t60-30.75h744.5q35 0 60 30.75t25 73.75v508.5q0 43-25 73.75t-60 30.75zM361 700.5q0 62 43.5 105.75t105.5 43.75 105.75-43.75 43.75-105.75v-45.5h-298.5v45.5zM858 47h-696v499h696v-499z" />
<glyph unicode="&#xe013;" glyph-name="uniE013" d="M416.5 474q4 0.5 10.25 1.5t22.5 8.25 28.5 18.5 22.5 34.75 10.25 54.5q0 79.5-48.75 121.75t-125.75 42.25h-321v-617h321q4 0 11 0.25t27.5 3.25 39 8.75 41 19.25 38.75 32.25 27.5 49.5 11.25 69.25v5.5t-0.5 13.75-2 20.5-5 24-8.75 25.5-14.25 24-20.5 20.75-28 13.75-36.5 5.25zM313 646h23q2 0 4.75-0.5t10.25-3.75 13.25-9.25 10.5-19.25 4.75-31.25q0-44-14.25-58.75t-40.25-14.75h-168.5v137.5h156.5zM328 248.5h-171.5v164.5h179.5q2.5 0 7-0.5t15.75-4.75 19.75-12.25 15.5-25.5 7-41.5q0-77-73-80zM793.5 598.5q-38 0-70.5-8t-55.25-21.75-41.25-31.5-29.75-37.5-19.5-39.5-12-37.5-6-31.5-2.25-21.75l-0.5-8q0-3-0.25-8.25t1-21.25 4.25-31.75 10.5-37 18.25-39.25 29.25-36.75 41.75-31.75 57.5-21.25 74.75-8.25q2.5 0 7.25-0.25t19.25 0.75 28.5 3 33 7 35.25 12.5 33 20.25 28.25 29 19 40 7.5 51.75h-108.5q0-2.5-0.25-7t-5.25-16-14.25-20.25-30-16-49.25-7.25q-0.5 1-6 0t-15.5 1.25-21.25 5-23 11-21.25 19-15.5 29.25-6 42h319.5q0.5 5.5 1.25 15.25t-0.5 37.5-6.5 53-20 56-37 53-61.5 37.5-90.25 15.25zM890 413h-202.5q0.5 4 2 10.5t8.75 22.75 18 29 32 23 47.75 10.25q19.5 0 35.25-5.25t25.25-13.75 16.5-18.5 10.25-20.25 4.75-18.75 2-14v-5zM661 719.5h254.5v-76h-254.5v76z" />
<glyph unicode="&#xe014;" glyph-name="uniE014" d="M0 651.5l41.5-54.5q3.5 3 9.5 7.25t22.25 14.25 30.25 15.75 29.25 6 23.25-9.25q15-18 86.25-250.5t87.75-267q10-21 25.25-41t37-37.5 45.25-26.75 52.25-6.5 56.25 20.75q23 15 53.5 39.25t72 62.25 83 82 84.5 100 78.25 113.75 62.75 126 39 134.75q21 119.5-42 176.5-50 45-133 36.5-83-8-153-64.5-82.5-66.5-102-167.5l-1.5-7q34 20 63 23t47-10 27-35.25 4.5-54-22-64.25q-46-85.5-84-135t-59-49.5q-20 0-37.75 47.75t-45.25 157.25q-5.5 22-11.5 54.75t-10.25 61.25-11.25 61.5-14.25 59.25-19.25 50.75-26.25 39.5-35.25 22-46.5 2q-37-7.5-82.25-34.25t-83.25-59.75-70.75-65-51.25-53.5z" />
<glyph unicode="&#xe015;" glyph-name="uniE015" d="M261.5 913l43 43 506.5-507-1-1 1-1-506.5-507-43 43 464.5 465z" />
<glyph unicode="&#xe016;" glyph-name="uniE016" d="M768.5-17l-43-43-506.5 507 1 1-1 1 506.5 507 43-43-464.5-465z" />
<glyph unicode="&#xe017;" glyph-name="uniE017" d="M937 155.5l-300.5 301 280 280q5.5 5.5 6 12.5t-4.5 12l-98.5 98.5q-5 5-11.75 4.5t-12.25-6l-280.5-280.5-281.5 281.5q-5.5 5.5-12.5 6t-12-4.5l-98-98.5q-5-5-4.5-11.75t6-12.25l281.5-281.5-302-302q-5.5-5.5-6-12.5t4.5-12l98-98.5q5-5 12-4.5t12.5 6l302 302 301-300.5q5.5-5.5 12.25-6t11.75 4.5l98.5 98q5 5 4.5 12t-6 12.5z" />
<glyph unicode="&#xe018;" glyph-name="uniE018" d="M408 552h-396.5v396.5h396.5v-396.5zM36 576.5h347v347.5h-347v-347.5zM1017 552h-396.5v396.5h396.5v-396.5zM645 576.5h347.5v347.5h-347.5v-347.5zM408.5-57h-396.5v396.5h396.5v-396.5zM36.5-32.5h347v347.5h-347v-347.5zM1017.5-57h-396.5v396.5h396.5v-396.5zM645.5-32.5h347.5v347.5h-347.5v-347.5z" />
<glyph unicode="&#xe019;" glyph-name="uniE019" d="M266.5 919.5l16.5 16.5 488-488-488-488-16.5 16.5 471.5 471.5z" />
<glyph unicode="&#xe01a;" glyph-name="uniE01A" d="M735 919.5l-16.5 16.5-487.5-488 487.5-488 16.5 16.5-471 471.5z" />
<glyph unicode="&#xe01b;" glyph-name="uniE01B" d="M977 682l43-43-507-507-1 1.5-1-1.5-507 507 43 43 465-465z" />
<glyph unicode="&#xe01c;" glyph-name="uniE01C" d="M985 654l16.5-16.5-488-488-487.5 488 16.5 16.5 471-471.5z" />
<glyph unicode="&#xe01d;" glyph-name="uniE01D" d="M559 896h-268q-59 0-113-26.75t-87-72.5-33-97.25q0-82 57-138.25t147-56.25q17 0 25 0.5-13.5-25.5-13.5-50 0-38.5 36.5-74-7.5 0-23-0.25t-23.5-0.25q-72.5 0-133.75-27.75t-95.5-72-34.25-93.25q0-47 37.75-83.25t99.75-55 137-18.75q61.5 0 112.25 16.5t83.25 43.75 50 61.5 17.5 71.25q0 59-20.5 98t-73 76q-23.5 16.5-47 41.75t-23.5 41.75q0 21.5 9.75 36.5t41.75 40q35 27 55.25 63t20.25 77q0 53-22.75 96t-63.75 58.5h85zM465.5 240.5q3.5-15.5 3.5-27.5 0-63.5-46.5-101.5t-148.5-38q-76 0-126.75 42t-50.75 101.5q0 57 58.75 98.5t136.25 40.5q36.5-1 67-10.5 6.5-4.5 22.5-15.5t21.5-15 17.5-13 16.75-14.25 11.75-13.5 10.75-16.5 6.25-17.25zM301 532q-51.5 1.5-94.5 50.75t-52 117.25q-9 67.5 21 113.5t82 44.5 94.75-49.75 51.75-115.75q9-68-21.25-115t-81.75-45.5zM832 704v192h-64v-192h-192v-64h192v-192h64v192h192v64h-192z" />
<glyph unicode="&#xe01e;" glyph-name="uniE01E" d="M576-64h-192v512h-128v176.5h128v104q0 45.5 5.25 79.5t19.25 63.75 37.25 48.5 60 29.25 86.75 10.5h141v-176.5h-88q-24 0-38.5-4t-21-14.5-8.25-21.25-1.75-30.75v-88.5h158.5l-18.5-176.5h-140v-512z" />
<glyph unicode="&#xe01f;" glyph-name="uniE01F" d="M1024 765.5q-58.5-25.5-120.5-33 68 41 92 116-61.5-36.5-133-50.5-62 66-153.5 66-87 0-148.5-61.5t-61.5-148.5q0-23.5 5.5-48-129 6.5-241.5 64.5t-191.5 155q-28.5-49-28.5-105.5 0-54 25.25-100.25t68.25-74.75q-49.5 1.5-95.5 26.5v-2.5q0-76 48-133.5t120.5-72.5q-26.5-7.5-55-7.5-21.5 0-39.5 3.5 20-63.5 73.75-104t122.25-41.5q-114.5-90-261-90-25 0-50 3 147.5-94.5 322-94.5 112 0 210 35.5t168 95 120.5 136.75 75 161.75 24.5 168.5q0 9.5-1 27.5 63 45 105 108.5z" />
<glyph unicode="&#xe020;" glyph-name="uniE020" d="M512 960q-104.5 0-199.25-40.5t-163.25-109-109-163.25-40.5-199.25 40.5-199.25 109-163.25 163.25-109 199.25-40.5 199.25 40.5 163.25 109 109 163.25 40.5 199.25-40.5 199.25-109 163.25-163.25 109-199.25 40.5zM561.5 276q-16.5 1-31.25 6.25t-23.25 10.5-23.75 15.75-24.25 16q-9-46.5-17-78.5t-21.5-69-33-64.5-45.5-46.5q-6.5 35-5.25 76.5t4.75 71 11.75 67 15.75 64.5 16.75 63 14.75 63q-13 21.5-15.75 51t4.5 56.5 22 49.5 37 30.25 49.75-1.75q23-9 30.5-29.25t3-45.5-13.5-54-17.25-57-10.25-52.25 10.25-41.25 41.25-23.25q30.5-6 58 5t46.5 35.25 33 56 19 68.25 3.75 71-12.5 65.5-30.25 50.5q-32 32.5-74.5 45.75t-84 8-81.25-26-68-52.5-42.25-75.5-6.5-90.25q2.5-14.5 11.25-30.5t15.5-26.5 6.25-29-13.5-41q-113.5 25.5-107.5 176 2 53 25 100.5t59 81 81.5 55 93.5 27q81 9 152.25-12.25t120.25-73 59-124.75q7-42.5 2-85.25t-16.75-82-34.25-72.5-50.25-57-65.5-36-79.25-8.75z" />
<glyph unicode="&#xe021;" glyph-name="uniE021" d="M1024 602q0-64-25.5-120.25t-71-97.75h0.5l-320-320q-16-16-24.75-24.25t-22.5-19.25-25.5-15.75-23.25-4.75-23.25 4.75-25.5 15.75-22.5 19.25-24.75 24.25l-320 320h0.5q-45.5 41.5-71 97.75t-25.5 120.25q0 60 23.25 114.5t62.5 93.75 93.75 62.5 114.5 23.25q64 0 120.25-25.5t97.75-71q41.5 45.5 97.75 71t120.25 25.5q60 0 114.5-23.25t93.75-62.5 62.5-93.75 23.25-114.5z" />
<glyph unicode="&#xe022;" glyph-name="uniE022" d="M1024 602q0 60-23.25 114.5t-62.5 93.75-93.75 62.5-114.5 23.25q-64 0-120.25-25.5t-97.75-71q-41.5 45.5-97.75 71t-120.25 25.5q-60 0-114.5-23.25t-93.75-62.5-62.5-93.75-23.25-114.5q0-64 25.5-120.25t71-97.75h-0.5l320-320q16-16 24.75-24.25t22.5-19.25 25.5-15.75 23.25-4.75 23.25 4.75 25.5 15.75 22.5 19.25 24.75 24.25l320 320h-0.5q45.5 41.5 71 97.75t25.5 120.25zM841.5 479l-329.5-330-5.5 5.5-324 324.5q-54.5 50-54.5 123 0 68.5 48.75 117.25t117.25 48.75q73 0 123-54.5l95-104.5 95 104.5q50 54.5 123 54.5 68.5 0 117.25-48.75t48.75-117.25q0-73-54.5-123z" />
<glyph unicode="&#xe023;" glyph-name="uniE023" d="M580 516v444h-136v-444h-444v-136h444v-444h136v444h444v136h-444z" />
<glyph unicode="&#xe024;" glyph-name="uniE024" d="M640 839l-49-84 112.5-65 48.5 84zM559 698.5l-243-420.5 112-65 243 421zM691 884.5l74.5-43.5q31-18 40.5-52.5t-8.5-65.5l-70.5-121.5-275.5-477-169-112q-30.5-20-50.25-8.5t-17.25 47.5l12.5 202.5 345.5 599q18 31 52.5 40.25t65.5-8.75zM274.5 77l121 80-112 64.5z" />
<glyph unicode="&#xe025;" glyph-name="uniE025" d="M882.5 655h-113.5v45.5q0 70.5-34.75 130t-94.25 94-130 34.5q-52.5 0-100.5-20.5t-82.5-55-55-82.5-20.5-100.5v-45.5h-113.5q-35 0-60-30.75t-25-73.75v-508.5q0-43 25-73.75t60-30.75h744.5q35 0 60 30.75t25 73.75v508.5q0 43-25 73.75t-60 30.75zM361 700.5q0 62 43.5 105.75t105.5 43.75 105.75-43.75 43.75-105.75v-45.5h-298.5v45.5zM858 47h-696v499h696v-499z" />
<glyph unicode="&#xe026;" glyph-name="uniE026" d="M416.5 474q4 0.5 10.25 1.5t22.5 8.25 28.5 18.5 22.5 34.75 10.25 54.5q0 79.5-48.75 121.75t-125.75 42.25h-321v-617h321q4 0 11 0.25t27.5 3.25 39 8.75 41 19.25 38.75 32.25 27.5 49.5 11.25 69.25v5.5t-0.5 13.75-2 20.5-5 24-8.75 25.5-14.25 24-20.5 20.75-28 13.75-36.5 5.25zM313 646h23q2 0 4.75-0.5t10.25-3.75 13.25-9.25 10.5-19.25 4.75-31.25q0-44-14.25-58.75t-40.25-14.75h-168.5v137.5h156.5zM328 248.5h-171.5v164.5h179.5q2.5 0 7-0.5t15.75-4.75 19.75-12.25 15.5-25.5 7-41.5q0-77-73-80zM793.5 598.5q-38 0-70.5-8t-55.25-21.75-41.25-31.5-29.75-37.5-19.5-39.5-12-37.5-6-31.5-2.25-21.75l-0.5-8q0-3-0.25-8.25t1-21.25 4.25-31.75 10.5-37 18.25-39.25 29.25-36.75 41.75-31.75 57.5-21.25 74.75-8.25q2.5 0 7.25-0.25t19.25 0.75 28.5 3 33 7 35.25 12.5 33 20.25 28.25 29 19 40 7.5 51.75h-108.5q0-2.5-0.25-7t-5.25-16-14.25-20.25-30-16-49.25-7.25q-0.5 1-6 0t-15.5 1.25-21.25 5-23 11-21.25 19-15.5 29.25-6 42h319.5q0.5 5.5 1.25 15.25t-0.5 37.5-6.5 53-20 56-37 53-61.5 37.5-90.25 15.25zM890 413h-202.5q0.5 4 2 10.5t8.75 22.75 18 29 32 23 47.75 10.25q19.5 0 35.25-5.25t25.25-13.75 16.5-18.5 10.25-20.25 4.75-18.75 2-14v-5zM661 719.5h254.5v-76h-254.5v76z" />
<glyph unicode="&#xe027;" glyph-name="uniE027" d="M0 651.5l41.5-54.5q3.5 3 9.5 7.25t22.25 14.25 30.25 15.75 29.25 6 23.25-9.25q15-18 86.25-250.5t87.75-267q10-21 25.25-41t37-37.5 45.25-26.75 52.25-6.5 56.25 20.75q23 15 53.5 39.25t72 62.25 83 82 84.5 100 78.25 113.75 62.75 126 39 134.75q21 119.5-42 176.5-50 45-133 36.5-83-8-153-64.5-82.5-66.5-102-167.5l-1.5-7q34 20 63 23t47-10 27-35.25 4.5-54-22-64.25q-46-85.5-84-135t-59-49.5q-20 0-37.75 47.75t-45.25 157.25q-5.5 22-11.5 54.75t-10.25 61.25-11.25 61.5-14.25 59.25-19.25 50.75-26.25 39.5-35.25 22-46.5 2q-37-7.5-82.25-34.25t-83.25-59.75-70.75-65-51.25-53.5z" />
<glyph unicode="&#xe028;" glyph-name="uniE028" d="M1007.5 94l-246.5 246.5q57 96 57 207.5 0 110-54.5 203.5t-148 148-203.5 54.5-203.5-54.5-148-148-54.5-203.5 54.5-203.5 148-148 203.5-54.5q112 0 207 56.5l246.5-246.5q8.5-8.5 20.75-8.25t20.75 8.75l100 100q8.5 8.5 8.75 20.75t-8.25 20.75zM105.5 548q0 62 24.25 119t65.25 98 98 65.25 119 24.25q83 0 153.75-41t112-111.75 41.25-153.75-41.25-153.75-112-112-153.75-41.25-153.75 41.25-111.75 112-41 153.75z" />
<glyph unicode="&#xe029;" glyph-name="uniE029" d="M1013.5 952.5l11-10.5-1006.5-1006.5-10.5 11z" />
<glyph unicode="&#xe600;" glyph-name="uniE600" d="M892 446q-27 0-51-10-8 86-74.5 145t-157.5 59q-44 0-84.5-15-12.5-4.5-12.5-15v-403q0-13 14-15h366q54.5 0 93.25 37.25t38.75 89.75-38.75 89.75-93.25 37.25zM400 192h32l16 224-16 224h-32l-16-224zM304 192h-32l-16 163 16 157h32l16-160zM144 192h32l16 128-16 128h-32l-16-128zM16 256h32l16 64-16 64h-32l-16-64z" />
<glyph unicode="&#xe601;" glyph-name="uniE601" d="M660 95.5q-12.5 0-21 8.5t-8.5 21 8.5 21l271.5 271.5h-873q-12.5 0-21.25 8.5t-8.75 21 8.75 21 21.25 8.5h873l-271.5 272q-8.5 8.5-8.5 20.75t8.5 20.75 21 8.5 21-8.5l342.5-343-343-343q-8.5-8.5-20.5-8.5z" />
<glyph unicode="&#xe602;" glyph-name="uniE602" d="M284.5 444h473v-15h-473v15z" />
<glyph unicode="&#xe900;" glyph-name="x" d="M778.411 864h141.141l-308.352-352.427 362.752-479.573h-284.032l-222.464 290.859-254.549-290.859h-141.227l329.813 376.96-347.989 455.040h291.243l201.088-265.856zM728.875 116.48h78.208l-504.832 667.477h-83.925z" />
<glyph unicode="&#xe901;" glyph-name="instagram" d="M512 867.8c136.8 0 153-0.6 206.8-3 50-2.2 77-10.6 95-17.6 23.8-9.2 41-20.4 58.8-38.2 18-18 29-35 38.4-58.8 7-18 15.4-45.2 17.6-95 2.4-54 3-70.2 3-206.8s-0.6-153-3-206.8c-2.2-50-10.6-77-17.6-95-9.2-23.8-20.4-41-38.2-58.8-18-18-35-29-58.8-38.4-18-7-45.2-15.4-95-17.6-54-2.4-70.2-3-206.8-3s-153 0.6-206.8 3c-50 2.2-77 10.6-95 17.6-23.8 9.2-41 20.4-58.8 38.2-18 18-29 35-38.4 58.8-7 18-15.4 45.2-17.6 95-2.4 54-3 70.2-3 206.8s0.6 153 3 206.8c2.2 50 10.6 77 17.6 95 9.2 23.8 20.4 41 38.2 58.8 18 18 35 29 58.8 38.4 18 7 45.2 15.4 95 17.6 53.8 2.4 70 3 206.8 3zM512 960c-139 0-156.4-0.6-211-3-54.4-2.4-91.8-11.2-124.2-23.8-33.8-13.2-62.4-30.6-90.8-59.2-28.6-28.4-46-57-59.2-90.6-12.6-32.6-21.4-69.8-23.8-124.2-2.4-54.8-3-72.2-3-211.2s0.6-156.4 3-211c2.4-54.4 11.2-91.8 23.8-124.2 13.2-33.8 30.6-62.4 59.2-90.8 28.4-28.4 57-46 90.6-59 32.6-12.6 69.8-21.4 124.2-23.8 54.6-2.4 72-3 211-3s156.4 0.6 211 3c54.4 2.4 91.8 11.2 124.2 23.8 33.6 13 62.2 30.6 90.6 59s46 57 59 90.6c12.6 32.6 21.4 69.8 23.8 124.2 2.4 54.6 3 72 3 211s-0.6 156.4-3 211c-2.4 54.4-11.2 91.8-23.8 124.2-12.6 34-30 62.6-58.6 91-28.4 28.4-57 46-90.6 59-32.6 12.6-69.8 21.4-124.2 23.8-54.8 2.6-72.2 3.2-211.2 3.2v0zM512 711c-145.2 0-263-117.8-263-263s117.8-263 263-263 263 117.8 263 263c0 145.2-117.8 263-263 263zM512 277.4c-94.2 0-170.6 76.4-170.6 170.6s76.4 170.6 170.6 170.6c94.2 0 170.6-76.4 170.6-170.6s-76.4-170.6-170.6-170.6zM846.8 721.4c0-33.91-27.49-61.4-61.4-61.4s-61.4 27.49-61.4 61.4c0 33.91 27.49 61.4 61.4 61.4s61.4-27.49 61.4-61.4z" />
</font>
</defs>
</svg>
